[FFmpeg-trac] #8877(undetermined:reopened): TV streaming problems

FFmpeg trac at avcodec.org
Sun Sep 13 01:30:43 EEST 2020


#8877: TV streaming problems
-------------------------------------+-------------------------------------
             Reporter:  Data2006     |                    Owner:
                 Type:  defect       |                   Status:  reopened
             Priority:  normal       |                Component:
                                     |  undetermined
              Version:  unspecified  |               Resolution:
             Keywords:               |               Blocked By:
             Blocking:               |  Reproduced by developer:  0
Analyzed by developer:  0            |
-------------------------------------+-------------------------------------

Comment (by Data2006):

 heiko at linux-rhoj:/mnt/Users/Heiko/MediathekView> ffmpeg -i "https://tv
 .bild-upload.com/sat1/tracks-v1a1/mono.m3u8" -t 00:02:17  "Sat.1.mp4"
 ffmpeg version 3.4.4 Copyright (c) 2000-2018 the FFmpeg developers
   built with gcc 7 (SUSE Linux)
   configuration: --prefix=/usr --libdir=/usr/lib64 --shlibdir=/usr/lib64
 --incdir=/usr/include/ffmpeg --extra-cflags='-fmessage-length=0 -grecord-
 gcc-switches -O2 -Wall -D_FORTIFY_SOURCE=2 -fstack-protector-strong
 -funwind-tables -fasynchronous-unwind-tables -fstack-clash-protection -g'
 --optflags='-fmessage-length=0 -grecord-gcc-switches -O2 -Wall
 -D_FORTIFY_SOURCE=2 -fstack-protector-strong -funwind-tables
 -fasynchronous-unwind-tables -fstack-clash-protection -g' --disable-
 htmlpages --enable-pic --disable-stripping --enable-shared --disable-
 static --enable-gpl --disable-openssl --enable-avresample --enable-libcdio
 --enable-gnutls --enable-ladspa --disable-cuda --disable-cuvid --enable-
 libass --enable-libbluray --enable-libcelt --enable-libcdio --enable-
 libdc1394 --enable-libfreetype --enable-libgsm --enable-libmp3lame
 --enable-libopenjpeg --enable-libopus --enable-libpulse --enable-libspeex
 --enable-libtheora --enable-libtwolame --enable-libvorbis --enable-libvpx
 --enable-libwebp --enable-libzimg --enable-libzvbi --enable-vaapi
 --enable-vdpau --enable-muxers --enable-demuxers --disable-encoders
 --disable-decoders --disable-decoder='mpeg4,h263,h264,hevc,vc1' --enable-
 encoder='apng,ass,ayuv,bmp,ffv1,ffvhuff,flac,gif,huffyuv,jpegls,libgsm,libmp3lame,libopenjpeg,libopus,libschroedinger,libspeex,libtheora,libtwolame,libvorbis,libvpx_vp8,libvpx_vp9,libwebp,libwebp_anim,mjpeg,mp2,mp2fixed,opus,pam,pbm,pcm_alaw,pcm_f32be,pcm_f32le,pcm_f64be,pcm_f64le,pcm_mulaw,pcm_s16be,pcm_s16be_planar,pcm_s16le,pcm_s16le_planar,pcm_s24be,pcm_s24le,pcm_s24le_planar,pcm_s32be,pcm_s32le,pcm_s32le_planar,pcm_s8,pcm_s8_planar,pcm_u16be,pcm_u16le,pcm_u24be,pcm_u24le,pcm_u32be,pcm_u32le,pcm_u8,pcx,pgm,pgmyuv,png,ppm,sgi,srt,ssa,sunrast,targa,text,tiff,v210,v308,v408,v410,vorbis,xbm,xwd,y41p,yuv4,zlib,'
 --enable-
 decoder='ac3,ansi,apng,ass,ayuv,bmp,dirac,exr,ffv1,ffvhuff,ffwavesynth,flac,gif,gsm,huffyuv,libcelt,libgsm,libopenjpeg,libopus,libschroedinger,libspeex,libvorbis,libvpx_vp8,libvpx_vp9,mjpeg,mpeg1video,mpeg2video,,mp1,mp1float,mp2,mp2float,mp3,mp3float,opus,pam,pbm,pcm_alaw,pcm_bluray,pcm_dvd,pcm_f32be,pcm_f32le,pcm_f64be,pcm_f64le,pcm_mulaw,pcm_s16be,pcm_s16be_planar,pcm_s16le,pcm_s16le_planar,pcm_s24be,pcm_s24le,pcm_s24le_planar,pcm_s32be,pcm_s32le,pcm_s32le_planar,pcm_s8,pcm_s8_planar,pcm_u16be,pcm_u16le,pcm_u24be,pcm_u24le,pcm_u32be,pcm_u32le,pcm_u8,pcx,pgm,pgmyuv,pgssub,png,ppm,rawvideo,sgi,srt,ssa,sunrast,targa,text,theora,tiff,v210,v210x,v308,v408,v410,vorbis,vp3,vp5,vp6,vp6a,vp6f,vp8,vp9,webp,xbm,xwd,y41p,yuv4,zlib,'
   libavutil      55. 78.100 / 55. 78.100
   libavcodec     57.107.100 / 57.107.100
   libavformat    57. 83.100 / 57. 83.100
   libavdevice    57. 10.100 / 57. 10.100
   libavfilter     6.107.100 /  6.107.100
   libavresample   3.  7.  0 /  3.  7.  0
   libswscale      4.  8.100 /  4.  8.100
   libswresample   2.  9.100 /  2.  9.100
   libpostproc    54.  7.100 / 54.  7.100
 [hls,applehttp @ 0x56379394b720] Opening 'https://tv.bild-upload.com/sat1
 /tracks-v1a1/2020/09/12/22/28/32-06000.ts' for reading
 [hls,applehttp @ 0x56379394b720] Could not find codec parameters for
 stream 0 (Audio: aac ([15][0][0][0] / 0x000F), 0 channels): unspecified
 sample rate
 Consider increasing the value for the 'analyzeduration' and 'probesize'
 options
 [hls,applehttp @ 0x56379394b720] Could not find codec parameters for
 stream 1 (Video: h264 ([27][0][0][0] / 0x001B), none): unspecified size
 Consider increasing the value for the 'analyzeduration' and 'probesize'
 options
 Input #0, hls,applehttp, from 'https://tv.bild-upload.com/sat1/tracks-
 v1a1/mono.m3u8':
   Duration: N/A, start: 26672.796156, bitrate: N/A
   Program 0
     Metadata:
       variant_bitrate : 0
     Stream #0:0: Audio: aac ([15][0][0][0] / 0x000F), 0 channels
     Metadata:
       variant_bitrate : 0
     Stream #0:1: Video: h264 ([27][0][0][0] / 0x001B), none, 25 fps, 25
 tbr, 90k tbn, 90k tbc
     Metadata:
       variant_bitrate : 0
 Automatic encoder selection failed for output stream #0:0. Default encoder
 for format mp4 (codec mpeg4) is probably disabled or this build of ffmpeg
 does not include that codec. Please choose an encoder manually.
 Error selecting an encoder for stream 0:0
 heiko at linux-rhoj:/mnt/Users/Heiko/MediathekView

--
Ticket URL: <https://trac.ffmpeg.org/ticket/8877#comment:6>
FFmpeg <https://ffmpeg.org>
FFmpeg issue tracker


More information about the FFmpeg-trac mailing list